Changes

Jump to: navigation, search

Practice keyboard bell samples

864 bytes added, 12:57, 21 June 2018
m
Improved voice management for fasst play
//----------------------------------------------------------
// Programmed by Rick White, http://www.chimemaster.comMay 23 2017 // Updated Jun 21 2018 to improve voice management for fast // playing using polyphonic grouping // // CREATIVE COMMONS LICENSE // Attribution 4.0 International (CC BY 4.0) // // For GCNA membership use with MIDI practice keyboards // January, March 2016, May 2017
// Works with Garratin Sample programs using ARIA engine or
// Plogue Sforzando - freeware can be found at
// http://www.plogue.com/products/sforzando/
//----------------------------------------------------------
<group> // was <global> more compatible using group polyphony=64 // reduce for slow cpu/low memory loop_mode=one_shot // force sample to play in entirety ampeg_attack=0.005 // 5 ms de-click may be excessive ampeg_hold=1 // 1 sec hold ampeg_decay=1 // 1 sec decay ampeg_sustain=100 // to 100% - play same staccato or legato ampeg_release=100 // 100 sec release long enough polyphony=4 // each group max voices // no keyboard transposition - full 6 octaves<group> group=01 <region> sample=1-Csharp2LT_10_10_0.wav key=037 lokey=036 hikeykey=038043 // keyboard G0 First AnnArbor bell // <region> sample=2-Eb2.wav key=039044 // missing Ab0 semitone <regiongroup> sample=3-E2.wav keygroup=04002 <region> sample=4-F2LT_10_10_01.wav key=041045 lokey=044 // fill missing Ab0 <regiongroup> samplegroup=5-Fsharp2.wav key=04203 <region> sample=6-G2LT_10_10_02.wav key=043046 // Bb0 <regiongroup> sample=7-Ab2.wav keygroup=04404 <region> sample=8-A2LT_10_10_03.wav key=045047 <regiongroup> sample=9-Bb2.wav keygroup=04605 <region> sample=10-B2LT_10_10_04.wav key=047048 // key C1 <regiongroup> samplegroup=11-C3.wav key=04806 <region> sample=12-Csharp3LT_10_10_05.wav key=049 <group> group=07 <region> sample=13-D3LT_10_10_06.wav key=050 <group> group=08 <region> sample=14-Eb3LT_10_10_07.wav key=051 <group> group=09 <region> sample=15-E3.8LT_10_10_08.wav key=052 <group> group=10 <region> sample=16-F3LT_10_10_09.wav key=053 <group> group=11 <region> sample=17-Fsharp3LT_10_10_10.wav key=054 <group> group=12 // <region> sample=18-G3LT_10_10_11.wav key=055 // late <region> sample=19-Ab3LT_10_10_12.wav key=056lokey=055 <group> group=13 <region> sample=20-A3LT_10_10_13.wav key=057 <group> group=14 <region> sample=21-Bb3LT_10_10_14.wav key=058 <group> group=15 <region> sample=22-B3LT_10_10_15.wav key=059 <group> group=16 <region> sample=23-C4LT_10_10_16.wav key=060// key C2 <group> group=17 <region> sample=24-Csharp4LT_10_10_17.wav key=061 <group> group=18 <region> sample=25-D4LT_10_10_18.wav key=062 <group> group=19 <region> sample=26-Eb4LT_10_10_19.wav key=063 <group> group=20 <region> sample=27-E4LT_10_10_20.wav key=064 <group> group=21 // <region> sample=28-F4LT_10_10_21.wav key=065 // wimpy <region> sample=29-Fsharp4LT_10_10_22.wav key=066lokey=065 <group> group=22 <region> sample=30-G4LT_10_10_23.wav key=067 <group> group=23 <region> sample=31-Ab4LT_10_10_24.wav key=068 <group> group=24 <region> sample=32-A4LT_10_10_25.wav key=069 <group> group=25 <region> sample=33-Bb4LT_10_10_26.wav key=070 <group> group=26 <region> sample=34-B4LT_10_10_27.wav key=071 <group> group=27 <region> sample=35-C5LT_10_10_28.wav key=072// key C3 <group> group=28 <region> sample=36-Csharp5LT_10_10_29.wav key=073 <group> group=29 <region> sample=37-D5LT_10_10_30.wav key=074 <group> group=30 <region> sample=38-Eb5LT_10_10_31.wav key=075 <group> group=31 <region> sample=39-E5LT_10_10_32.wav key=076 <group> group=32 <region> sample=40-F5LT_10_10_33.wav key=077 <group> group=33 <region> sample=41-Fsharp5LT_10_10_34.wav key=078 <group> group=34 <region> sample=42-G5LT_10_10_35.wav key=079 <group> group=35 <region> sample=43-Ab5LT_10_10_36.wav key=080 <group> group=36 <region> sample=44-A5LT_10_10_37.wav key=081 <group> group=37 <region> sample=45-Bb5LT_10_10_38.wav key=082 <group> group=38 <region> sample=46-B5LT_10_10_39.wav key=083 <group> group=39 <region> sample=47-C6LT_10_10_40.wav key=084// key C4 <group> group=41 <region> sample=48-Csharp6LT_10_10_41.wav key=085 <group> group=42 <region> sample=49-D6LT_10_10_42.wav key=086 <group> group=43 <region> sample=50-Eb6LT_10_10_43.wav key=087 <group> group=44 <region> sample=51-E6LT_10_10_44.wav key=088 <group> group=45 <region> sample=52-F6LT_10_10_45.wav key=089 <group> group=46 <region> sample=53-Fsharp6LT_10_10_46.wav key=090 <group> group=47 <region> sample=54-G6LT_10_10_47.wav key=091 <group> group=48 <region> sample=55-Ab6LT_10_10_48.wav key=092 <group> group=49 <region> sample=56-A6LT_10_10_49.wav key=093 <group> group=50 <region> sample=57-Bb6LT_10_10_50.wav key=094 <group> group=51 <region> sample=58-B6LT_10_10_51.wav key=095 <group> group=52 <region> sample=59-C7LT_10_10_52.wav key=096// key C5 <group> group=53 <region> sample=60-Csharp7LT_10_10_53.wav key=097 <regiongroup> samplegroup=61-D7.wav key=09854 <region> sample=62-Eb7LT_10_10_54.wav key=099098 <regiongroup> samplegroup=63-E7.wav key=10055 <region> sample=64-F7LT_10_10_55.wav key=101099 <regiongroup> samplegroup=65-Fsharp7.wav key=10256 <region> sample=66-G7LT_10_10_56.wav key=103100 <regiongroup> samplegroup=67-Ab7.3.wav key=10457 <region> sample=68-A7.4LT_10_10_57.wav key=105101 <regiongroup> samplegroup=69-Bb7.wav key=10658 <region> sample=70-B7LT_10_10_58.wav key=107102 <regiongroup> samplegroup=71-C8.wav key=10859 <region> sample=72-Csharp8LT_10_10_59.wav key=109 103 hikey=127// key G5
Save the file as ''chicago.sfz'' in the ''samples'' folder

Navigation menu